Search

Dragonheart A New Beginning 2000 720p x264 Esub BluRay Dual Audio English Hindi GOPISAHI


Imdb PictureOriginal Title: Wo hu cang long
Title: Crouching Tiger, Hidden Dragon
Year: 2000
Runtime: 120 minutes
Votes: 231772
Rating: 7.9/10
Language: Mandarin
Country: Taiwan, Hong Kong, USA, China
All Genres: Action, Adventure, Fantasy, Romance
Plot Outline: A young Chinese warrior steals a sword from a famed swordsman and then escapes into a world of romantic adventure with a mysterious man in the frontier of the nation.
Tagline: A film by Ang Lee
Director: Ang Lee
Writing By: Du Lu Wang,Hui-Ling Wang,James Schamus,Kuo Jung Tsai,
Produced By: Bo-Chu Chui,Ping Dong,Li-Kong Hsu,William Kong,Ang Lee,Philip Lee,David Linde,Er-Dong Liu,Kelly Miller,James Schamus,Wai Sum Shia,Quangang Zheng,
Music: Dun Tan
Cast:
Yun-Fat Chow as Master Li Mu Bai 
Michelle Yeoh as Yu Shu Lien 
Ziyi Zhang as Jen Yu (Mandarin version) / Jiao Long (English dubbed version) 
Chen Chang as Lo 'Dark Cloud' / Luo Xiao Hu 
Sihung Lung as Sir Te 
Pei-Pei Cheng as Jade Fox 
Fa Zeng Li as Governor Yu 
Xian Gao as Bo 
Yan Hai as Madame Yu 
De Ming Wang as Police Inspector Tsai / Prefect Cai Qiu 
Trailers:
Crouching Tiger, Hidden Dragon

Format                         : Matroska
Format version                 : Version 4 / Version 2
File size                      : 569 MiB
Duration                       : 2 h 0 min
Overall bit rate               : 661 kb/s
Movie name                     : Crouching Tiger Hidden Dragon 2000 GOPISAHI

Video
Format                         : AVC
Codec ID                       : V_MPEG4/ISO/AVC
Duration                       : 2 h 0 min
Bit rate                       : 400 kb/s
Width                          : 1 280 pixels
Height                         : 528 pixels
Display aspect ratio           : 2.40:1
Frame rate mode                : Constant
Frame rate                     : 23.976 (24000/1001) FPS
Stream size                    : 344 MiB (60%)
Title                          : GOPISAHI
Writing library                : x264 core 155 r2893 b00bcaf
Language                       : English

Audio #1
Format/Info                    : Advanced Audio Codec
Duration                       : 1 h 55 min
Bit rate                       : 82.5 kb/s
Channel(s)                     : 6 channels
Channel positions              : Front: L C R, Side: L R, LFE
Sampling rate                  : 44.1 kHz
Frame rate                     : 43.066 FPS (1024 SPF)
Compression mode               : Lossy
Stream size                    : 68.4 MiB (12%)
Title                          : GOPISAHI
Language                       : Hindi

Audio #2
Format                         : AAC
Duration                       : 2 h 0 min
Bit rate                       : 89.3 kb/s
Channel(s)                     : 6 channels
Channel positions              : Front: L C R, Side: L R, LFE
Sampling rate                  : 44.1 kHz
Frame rate                     : 43.066 FPS (1024 SPF)
Compression mode               : Lossy
Delay relative to video        : 1 s 0 ms
Stream size                    : 76.8 MiB (13%)
Title                          : GOPISAHI
Language                       : Chinese

Audio #3
Format                         : AAC
Duration                       : 2 h 0 min
Bit rate                       : 89.3 kb/s
Channel(s)                     : 6 channels
Channel positions              : Front: L C R, Side: L R, LFE
Sampling rate                  : 44.1 kHz
Frame rate                     : 43.066 FPS (1024 SPF)
Compression mode               : Lossy
Delay relative to video        : 1 s 0 ms
Stream size                    : 76.8 MiB (14%)
Title                          : GOPISAHI
Language                       : English

Text
Language                       : English
 
 

Post a Comment

0 Comments