Search

Dushman 2017 DvD RiP Punjabi GOPISAHI

 Format                         : Matroska
Format version                 : Version 4 / Version 2
File size                      : 392 MiB
Duration                       : 2 h 20 min
Overall bit rate               : 391 kb/s
Movie name                     : Dushman 2017
Video
Format                         : AVC
Format/Info                    : Advanced Video Codec
Codec ID                       : V_MPEG4/ISO/AVC
Duration                       : 2 h 20 min
Bit rate                       : 300 kb/s
Width                          : 800 pixels
Height                         : 304 pixels
Display aspect ratio           : 2.632
Frame rate mode                : Constant
Frame rate                     : 23.976 (24000/1001) FPS
Stream size                    : 300 MiB (77%)
Writing library                : x264

Audio
Format                         : AAC
Duration                       : 2 h 20 min
Bit rate                       : 89.0 kb/s
Channel(s)                     : 6 channels
Channel positions              : Front: L C R, Side: L R, LFE
Sampling rate                  : 44.1 kHz
Frame rate                     : 43.066 FPS (1024 SPF)
Compression mode               : Lossy
Stream size                    : 89.1 MiB (23%)
Language                       : Panjabi

Post a Comment

0 Comments