Search

Escape From Brothel 1992 DVD Dual Audio Hindi Chinese GOPISAHI


Format                         : Matroska
Format version                 : Version 4 / Version 2
File size                      : 264 MiB
Duration                       : 1 h 37 min
Overall bit rate               : 380 kb/s
Movie name                     : Escape From Brothel 1992

Video
Format                         : AVC
Format/Info                    : Advanced Video Codec
Codec ID                       : V_MPEG4/ISO/AVC
Duration                       : 1 h 37 min
Bit rate                       : 200 kb/s
Width                          : 618 pixels
Height                         : 478 pixels
Display aspect ratio           : 1.293
Frame rate mode                : Constant
Frame rate                     : 29.970 (30000/1001) FPS
Stream size                    : 139 MiB (53%)
Title                          : GOPISAHI
Writing library                : x264 core 148 r2708 86b7198

Audio #1
Format                         : AAC
Duration                       : 1 h 37 min
Bit rate                       : 92.4 kb/s
Channel(s)                     : 6 channels
Channel positions              : Front: L C R, Side: L R, LFE
Sampling rate                  : 44.1 kHz
Frame rate                     : 43.066 FPS (1024 SPF)
Compression mode               : Lossy
Stream size                    : 64.3 MiB (24%)
Language                       : English

Audio #2
Format                         : AAC
Duration                       : 1 h 37 min
Bit rate                       : 84.6 kb/s
Channel(s)                     : 6 channels
Channel positions              : Front: L C R, Side: L R, LFE
Sampling rate                  : 44.1 kHz
Frame rate                     : 43.066 FPS (1024 SPF)
Compression mode               : Lossy
Stream size                    : 58.8 MiB (22%)
Language                       : Hindi
 
 

Post a Comment

0 Comments