Search

Eternal Sunshine of the Spotless Mind 2004 720p Esub BlyRay Dual Audio English Hindi GOPISAHI


Format                         : Matroska
Format version                 : Version 4 / Version 2
File size                      : 674 MiB
Duration                       : 1 h 47 min
Overall bit rate               : 874 kb/s
Movie name                     : Eternal Sunshine of the Spotless Mind 2004

Video
Format                         : AVC
Codec ID                       : V_MPEG4/ISO/AVC
Duration                       : 1 h 47 min
Bit rate                       : 700 kb/s
Width                          : 1 280 pixels
Height                         : 688 pixels
Display aspect ratio           : 1.85:1
Frame rate mode                : Constant
Frame rate                     : 23.976 (24000/1001) FPS
Stream size                    : 539 MiB (80%)
Writing library                : x264

Audio #1
Format                         : AAC
Duration                       : 1 h 47 min
Bit rate                       : 88.6 kb/s
Channel(s)                     : 6 channels
Channel positions              : Front: L C R, Side: L R, LFE
Sampling rate                  : 44.1 kHz
Frame rate                     : 43.066 FPS (1024 SPF)
Stream size                    : 68.3 MiB (10%)
Language                       : English

Audio #2
Format                         : AAC
Duration                       : 1 h 47 min
Bit rate                       : 83.8 kb/s
Channel(s)                     : 6 channels
Channel positions              : Front: L C R, Side: L R, LFE
Sampling rate                  : 44.1 kHz
Frame rate                     : 43.066 FPS (1024 SPF)
Stream size                    : 64.6 MiB (10%)
Language                       : Hindi

Text
Language                       : English
 
 

Post a Comment

0 Comments