Search

Fantasies 1981 DVD Dual Audio English Hindi GOPISAHI


Format                         : Matroska
Format version                 : Version 4 / Version 2
File size                      : 292 MiB
Duration                       : 1 h 20 min
Overall bit rate               : 506 kb/s
Movie name                     : Fantasies 1981 GOPISAHI

Video
Format                         : AVC
Codec ID                       : V_MPEG4/ISO/AVC
Duration                       : 1 h 20 min
Bit rate                       : 300 kb/s
Width                          : 600 pixels
Height                         : 480 pixels
Display aspect ratio           : 5:4
Frame rate mode                : Constant
Frame rate                     : 30.000 FPS
Stream size                    : 173 MiB (59%)
Title                          : GOPISAHI
Writing library                : x264 core 155 r2893 b00bcaf

Audio #1
Format                         : AAC
Duration                       : 1 h 20 min
Bit rate                       : 105 kb/s
Channel(s)                     : 6 channels
Channel positions              : Front: L C R, Side: L R, LFE
Sampling rate                  : 44.1 kHz
Frame rate                     : 43.066 FPS (1024 SPF)
Compression mode               : Lossy
Stream size                    : 60.8 MiB (21%)
Language                       : English

Audio #2
Duration                       : 1 h 20 min
Bit rate                       : 96.0 kb/s
Channel(s)                     : 6 channels
Channel positions              : Front: L C R, Side: L R, LFE
Sampling rate                  : 44.1 kHz
Frame rate                     : 43.066 FPS (1024 SPF)
Compression mode               : Lossy
Stream size                    : 56.6 MiB (19%)
Title                          : GOPISAHI
Language                       : Hindi



Post a Comment

0 Comments