Search

Feast 2005 720p Esub BluRay Dual Audio English Hindi GOPISAHI


Video
Format                         : AVC
Codec ID                       : V_MPEG4/ISO/AVC
Duration                       : 1 h 25 min
Bit rate                       : 923 kb/s
Width                          : 1 278 pixels
Height                         : 544 pixels
Display aspect ratio           : 2.35:1
Frame rate mode                : Constant
Frame rate                     : 24.448 FPS
Stream size                    : 573 MiB (88%)
Writing library                : x264 core 112
Audio #1
Format                         : AAC
Duration                       : 1 h 25 min
Bit rate                       : 89.9 kb/s
Channel(s)                     : 6 channels
Channel positions              : Front: L C R, Side: L R, LFE
Sampling rate                  : 44.1 kHz
Frame rate                     : 43.066 FPS (1024 SPF)
Stream size                    : 54.7 MiB (8%)
Language                       : Hindi
Audio #2
Format                         : AAC
Duration                       : 1 h 25 min
Bit rate                       : 40.8 kb/s
Channel(s)                     : 2 channels
Channel positions              : Front: L R
Sampling rate                  : 48.0 kHz / 24.0 kHz
Frame rate                     : 23.438 FPS (1024 SPF)
Compression mode               : Lossy
Stream size                    : 24.8 MiB (4%)
Language                       : English
Text
Language                       : English