Search

Finding Nemo 2003 720p Esub BRrip Dual Audio English Hindi GOPISAHI

Video
Format                         : AVC
Codec ID                       : V_MPEG4/ISO/AVC
Duration                       : 1 h 40 min
Bit rate                       : 806 kb/s
Width                          : 1 280 pixels
Height                         : 720 pixels
Display aspect ratio           : 16:9
Frame rate mode                : Constant
Frame rate                     : 23.976 (24000/1001) FPS
Color space                    : YUV
Chroma subsampling             : 4:2:0
Bit depth                      : 8 bits
Scan type                      : Progressive
Bits/(Pixel*Frame)             : 0.036
Stream size                    : 582 MiB (81%)
Writing library                : x264 core 125 r2200 999b753

Audio #1
Format                         : AC-3
Duration                       : 1 h 40 min
Bit rate mode                  : Constant
Bit rate                       : 96.0 kb/s
Channel(s)                     : 6 channels
Channel positions              : Front: L C R, Side: L R, LFE
Sampling rate                  : 44.1 kHz
Frame rate                     : 28.711 FPS (1536 SPF)
Stream size                    : 69.3 MiB (10%)
Language                       : English

Audio #2
Format                         : AC-3
Duration                       : 1 h 33 min
Bit rate mode                  : Constant
Bit rate                       : 96.0 kb/s
Channel(s)                     : 6 channels
Channel positions              : Front: L C R, Side: L R, LFE
Sampling rate                  : 44.1 kHz
Frame rate                     : 28.711 FPS (1536 SPF)
Stream size                    : 64.1 MiB (9%)
Language                       : Hindi

Text
Duration                       : 1 h 31 min
Stream size                    : 51.3 KiB (0%)
Language                       : English
 
 
 
 

Post a Comment

0 Comments