Search

Speed Racer 2008 720p Esub BluRay Dual Audio English Hindi GOPISAHI


Format                         : Matroska
Format version                 : Version 4 / Version 2
File size                      : 930 MiB
Duration                       : 2 h 15 min
Overall bit rate               : 963 kb/s
Movie name                     : Speed Racer 2008
Video
Format                         : AVC
Codec ID                       : V_MPEG4/ISO/AVC
Duration                       : 2 h 15 min
Bit rate                       : 782 kb/s
Width                          : 1 280 pixels
Height                         : 544 pixels
Display aspect ratio           : 2.35:1
Frame rate mode                : Constant
Frame rate                     : 23.976 (24000/1001) FPS
Color space                    : YUV
Chroma subsampling             : 4:2:0
Stream size                    : 755 MiB (81%)
Writing library                : x264 core 130 r2273 b3065e6
Audio #1
ID                             : 3
Format                         : AAC
Duration                       : 2 h 15 min
Bit rate                       : 88.4 kb/s
Channel(s)                     : 6 channels
Channel positions              : Front: L C R, Side: L R, LFE
Sampling rate                  : 44.1 kHz
Frame rate                     : 43.066 FPS (1024 SPF)
Stream size                    : 85.4 MiB (9%)
Language                       : English
Audio #2
Format                         : AAC
Duration                       : 2 h 9 min
Bit rate                       : 93.6 kb/s
Channel(s)                     : 2 channels
Channel positions              : Front: L R
Sampling rate                  : 44.1 kHz
Frame rate                     : 43.066 FPS (1024 SPF)
Stream size                    : 86.7 MiB (9%)
Language                       : Hindi
Text
Language                       : English


Post a Comment

0 Comments