Search

Free Face of Terror 2004 DVD Hindi GOPISAHI

Format                         : Matroska
Format version                 : Version 4 / Version 2
File size                      : 197 MiB
Duration                       : 1 h 27 min
Overall bit rate               : 316 kb/s
Movie name                     : Free Face of Terror 2004

Video
Format                         : AVC
Codec ID                       : V_MPEG4/ISO/AVC
Duration                       : 1 h 27 min
Bit rate                       : 250 kb/s
Width                          : 582 pixels
Height                         : 440 pixels
Display aspect ratio           : 4:3
Frame rate mode                : Constant
Frame rate                     : 23.976 (24000/1001) FPS
Stream size                    : 156 MiB (79%)
Writing library                : x264 core 155 r2893 b00bcaf

Audio
Format                         : AAC
Duration                       : 1 h 27 min
Bit rate                       : 63.7 kb/s
Channel(s)                     : 6 channels
Channel positions              : Front: L C R, Side: L R, LFE
Sampling rate                  : 44.1 kHz
Frame rate                     : 43.066 FPS (1024 SPF)
Compression mode               : Lossy
Stream size                    : 39.7 MiB (20%)
Title                          : GOPISAHI
Language                       : Hindi
 
 
 

Post a Comment

0 Comments