Search

Game Of Death II 1981 720p Esub BlyRay Dual Audio English Hindi GOPISAHI

 
Format                         : Matroska
Format version                 : Version 4 / Version 2
File size                      : 459 MiB
Duration                       : 1 h 36 min
Overall bit rate               : 668 kb/s
Movie name                     : Game Of Death II 1981 GOPISAHI

Video
Format                         : AVC
Codec ID                       : V_MPEG4/ISO/AVC
Duration                       : 1 h 36 min
Bit rate                       : 500 kb/s
Width                          : 1 280 pixels
Height                         : 556 pixels
Display aspect ratio           : 2.35:1
Frame rate mode                : Constant
Frame rate                     : 23.976 (24000/1001) FPS
Stream size                    : 344 MiB (75%)
Writing library                : x264

Audio #1
Format                         : AAC
Duration                       : 1 h 35 min
Bit rate                       : 78.4 kb/s
Channel(s)                     : 6 channels
Channel positions              : Front: L C R, Side: L R, LFE
Sampling rate                  : 44.1 kHz
Frame rate                     : 43.066 FPS (1024 SPF)
Compression mode               : Lossy
Stream size                    : 53.8 MiB (12%)
Language                       : English

Audio #2
Format                         : AAC
Duration                       : 1 h 35 min
Bit rate                       : 86.6 kb/s
Channel(s)                     : 6 channels
Channel positions              : Front: L C R, Side: L R, LFE
Sampling rate                  : 44.1 kHz
Frame rate                     : 43.066 FPS (1024 SPF)
Stream size                    : 59.5 MiB (13%)
Language                       : Hindi

Text
Language                       : English
 

Post a Comment

0 Comments