Search

Godsend 2004 720p Esub BR Dual Audio English Hindi GOPISAHI

 Format                         : Matroska
Format version                 : Version 4 / Version 2
File size                      : 636 MiB
Duration                       : 1 h 42 min
Overall bit rate               : 869 kb/s
Movie name                     : Godsend 2004 GOPISAHI

Video
Format                         : AVC
Codec ID                       : V_MPEG4/ISO/AVC
Duration                       : 1 h 42 min
Bit rate                       : 600 kb/s
Width                          : 1 280 pixels
Height                         : 544 pixels
Display aspect ratio           : 2.35:1
Frame rate mode                : Constant
Frame rate                     : 23.976 (24000/1001) FPS
Stream size                    : 439 MiB (69%)
Writing library                : x264 core 155 r2893 b00bcaf

Audio #1
Format                         : AAC
Duration                       : 1 h 42 min
Bit rate                       : 174 kb/s
Channel(s)                     : 6 channels
Channel positions              : Front: L C R, Side: L R, LFE
Sampling rate                  : 44.1 kHz
Frame rate                     : 43.066 FPS (1024 SPF)
Stream size                    : 128 MiB (20%)
Language                       : English

Audio #2
Format                         : AAC
Duration                       : 1 h 42 min
Bit rate                       : 91.9 kb/s
Channel(s)                     : 6 channels
Channel positions              : Front: L C R, Side: L R, LFE
Sampling rate                  : 44.1 kHz
Frame rate                     : 43.066 FPS (1024 SPF)
Stream size                    : 67.1 MiB (11%)
Language                       : Hindi

Text
Language                       : English
 
 
 
 

Post a Comment

0 Comments