Search

Golak Bugni Bank Te Batua 2018 DVD SCR Punjabi GOPISAHI


Format                         : Matroska
Format version                 : Version 4 / Version 2
File size                      : 228 MiB
Duration                       : 2 h 3 min
Overall bit rate               : 258 kb/s
Movie name                     :[url=http://] www.gopisahi.pw
[/url]
Video
Format                         : AVC
Codec ID                       : V_MPEG4/ISO/AVC
Duration                       : 2 h 3 min
Bit rate                       : 200 kb/s
Width                          : 636 pixels
Height                         : 476 pixels
Display aspect ratio           : 2.40:1
Original display aspect ratio  : 2.40:1
Frame rate mode                : Constant
Frame rate                     : 23.976 (24000/1001) FPS
Color space                    : YUV
Chroma subsampling             : 4:2:0
Bit depth                      : 8 bits
Scan type                      : Progressive
Bits/(Pixel*Frame)             : 0.028
Stream size                    : 177 MiB (78%)
Title                          :[url=http://] www.gopisahi.pw[/url]
Writing library                : x264 core 148 r2708 86b7198

Audio
Format                         : AAC
Duration                       : 2 h 3 min
Bit rate                       : 55.7 kb/s
Channel(s)                     : 2 channels
Channel positions              : Front: L R
Sampling rate                  : 44.1 kHz
Frame rate                     : 43.066 FPS (1024 SPF)
Compression mode               : Lossy
Stream size                    : 49.3 MiB (22%)
Title                          : [url=http://]www.gopisahi.pw[/url]





Post a Comment

0 Comments