Search

Golden Receiver 1998 x264 Esub DvD Dual Audio English Hindi GOPISAHI


Format                         : Matroska
Format version                 : Version 4 / Version 2
File size                      : 371 MiB
Duration                       : 1 h 30 min
Overall bit rate               : 573 kb/s
Movie name                     : Golden Receiver 1998 GOPISAHI

Video
Format                         : AVC
Codec ID                       : V_MPEG4/ISO/AVC
Duration                       : 1 h 30 min
Bit rate                       : 400 kb/s
Width                          : 512 pixels
Height                         : 384 pixels
Display aspect ratio           : 4:3
Frame rate mode                : Constant
Frame rate                     : 23.976 FPS
Color space                    : YUV
Chroma subsampling             : 4:2:0
Bit depth                      : 8 bits
Scan type                      : Progressive
Bits/(Pixel*Frame)             : 0.085
Stream size                    : 259 MiB (70%)
Title                          : GOPISAHI
Writing library                : x264 core 155 r2893 b00bcaf

Audio #3
Format                         : AAC
Duration                       : 1 h 30 min
Bit rate                       : 90.5 kb/s
Channel(s)                     : 6 channels
Channel positions              : Front: L C R, Side: L R, LFE
Sampling rate                  : 44.1 kHz
Frame rate                     : 43.066 FPS (1024 SPF)
Compression mode               : Lossy
Stream size                    : 58.5 MiB (16%)
Title                          : GOPISAHI
Language                       : English

Audio #2
Format                         : AAC
Duration                       : 1 h 30 min
Bit rate                       : 80.3 kb/s
Channel(s)                     : 6 channels
Channel positions              : Front: L C R, Side: L R, LFE
Sampling rate                  : 44.1 kHz
Frame rate                     : 43.066 FPS (1024 SPF)
Compression mode               : Lossy
Stream size                    : 51.8 MiB (14%)
Title                          : GOPISAHI
Language                       : Hindi

Text
Language                       : English






Post a Comment

0 Comments