Golmaal Again 2017 720p Esub BluRay 2017 Hindi GOPISAHI

Format                         : Matroska
Format version                 : Version 4 / Version 2
File size                      : 855 MiB
Duration                       : 2 h 31 min
Overall bit rate               : 791 kb/s
Movie name                     : Golmaal Again 2017 GOPISAHI
Video
Format                         : AVC
Codec ID                       : V_MPEG4/ISO/AVC
Duration                       : 2 h 31 min
Bit rate                       : 700 kb/s
Width                          : 1 280 pixels
Height                         : 536 pixels
Display aspect ratio           : 2.40:1
Frame rate mode                : Constant
Frame rate                     : 24.000 FPS
Stream size                    : 757 MiB (88%)
Title                          : GOPISAHI
Writing library                : x264 core 152 r2851 ba24899
Language                       : Hindi
Audio
Format                         : AAC
Duration                       : 2 h 31 min
Bit rate                       : 88.8 kb/s
Channel(s)                     : 6 channels
Channel positions              : Front: L C R, Side: L R, LFE
Sampling rate                  : 44.1 kHz
Frame rate                     : 43.066 FPS (1024 SPF)
Stream size                    : 96.0 MiB (11%)
Language                       : Hindi
Text
Language                       : English




 Golmaal Again
(2017) on IMDb

Post a Comment

0 Comments