Search

Great Sardaar 2017 720p HDRIP Punjabi GOPISAHI


Format                         : Matroska
Format version                 : Version 4 / Version 2
File size                      : 681 MiB
Duration                       : 1 h 48 min
Overall bit rate               : 876 kb/s
Movie name                     : Great Sardaar 2017 GOPISAHI

Video
Format                         : AVC
Codec ID                       : V_MPEG4/ISO/AVC
Duration                       : 1 h 48 min
Bit rate                       : 799 kb/s
Width                          : 1 280 pixels
Height                         : 502 pixels
Display aspect ratio           : 2.550
Frame rate                     : 23.976 (23976/1000) FPS
Stream size                    : 621 MiB (91%)
Writing library                : x264 core 148 r2708 86b7198

Audio
Format                         : AAC
Duration                       : 1 h 48 min
Bit rate                       : 75.0 kb/s
Channel(s)                     : 6 channels
Channel positions              : Front: L C R, Side: L R, LFE
Sampling rate                  : 44.1 kHz
Frame rate                     : 43.066 FPS (1024 SPF)
Stream size                    : 58.4 MiB (9%)
Language                       : Panjabi
 
 

Post a Comment

0 Comments