Search

Gurgaon 2017 720p HD x264 Hindi GOPISAHI



Format : Matroska 
Format version : Version 4 / Version 2 
File size : 412 MiB 
Duration : 1 h 41 min 
Overall bit rate : 566 kb/s 
Movie name : Gurgaon 2017 GOPISAHI 

Video 
Format : AVC 
Codec ID : V_MPEG4/ISO/AVC 
Duration : 1 h 41 min 
Bit rate : 500 kb/s 
Width : 1 280 pixels 
Height : 536 pixels 
Display aspect ratio : 2.40:1 
Frame rate mode : Constant 
Frame rate : 25.000 FPS 
Stream size : 364 MiB (88%) 
Title : GOPISAHI 
Writing library : x264 core 148 r2708 86b7198 

Audio 
Format : AAC 
Duration : 1 h 41 min 
Bit rate : 63.9 kb/s 
Channel(s) : 6 channels 
Channel positions : Front: L C R, Side: L R, LFE 
Sampling rate : 44.1 kHz 
Frame rate : 43.066 FPS (1024 SPF) 
Compression mode : Lossy 
Stream size : 46.6 MiB (11%) 
Title : GOPISAHI 
Language : Hindi 




Post a Comment

0 Comments