Search

Hard Kaur 2017 HDTV Punjabi GOPISAHI

Format                         : Matroska
Format version                 : Version 4 / Version 2
File size                      : 439 MiB
Duration                       : 2 h 4 min
Overall bit rate               : 495 kb/s
Movie name                     : Hard Kaur 2017 GOPISAHI

Video
Format                         : AVC
Codec ID                       : V_MPEG4/ISO/AVC
Duration                       : 2 h 4 min
Bit rate                       : 400 kb/s
Width                          : 1 280 pixels
Height                         : 544 pixels
Display aspect ratio           : 2.35:1
Frame rate mode                : Constant
Frame rate                     : 25.000 FPS
Stream size                    : 355 MiB (81%)
Title                          : GOPISAHI
Writing library                : x264 core 155 r2893 b00bcaf

Audio
Format                         : AAC
Duration                       : 2 h 4 min
Bit rate                       : 93.0 kb/s
Channel(s)                     : 6 channels
Channel positions              : Front: L C R, Side: L R, LFE
Sampling rate                  : 44.1 kHz
Frame rate                     : 43.066 FPS (1024 SPF)
Compression mode               : Lossy
Stream size                    : 82.6 MiB (19%)
Title                          : GOPISAHI
Language                       : Panjabi


 

Post a Comment

0 Comments