Search

Hardwired 2009 720p DVD Dual Audio English Hindi GOPISAHI


Format                         : Matroska
Format version                 : Version 4 / Version 2
File size                      : 745 MiB
Duration                       : 1 h 29 min
Overall bit rate mode          : Variable
Overall bit rate               : 1 158 kb/s
Movie name                     : Hardwired 2009 HI

Video
Format                         : AVC
Codec ID                       : V_MPEG4/ISO/AVC
Duration                       : 1 h 29 min
Bit rate mode                  : Variable
Bit rate                       : 987 kb/s
Maximum bit rate               : 40.0 Mb/s
Width                          : 1 280 pixels
Height                         : 688 pixels
Display aspect ratio           : 1.85:1
Frame rate mode                : Constant
Frame rate                     : 25.000 FPS
Bits/(Pixel*Frame)             : 0.045
Stream size                    : 635 MiB (85%)
Writing library                : x264

Audio #1
Format                         : AAC
Duration                       : 1 h 29 min
Bit rate                       : 85.0 kb/s
Channel(s)                     : 6 channels
Channel positions              : Front: L C R, Side: L R, LFE
Sampling rate                  : 44.1 kHz
Frame rate                     : 43.066 FPS (1024 SPF)
Stream size                    : 54.7 MiB (7%)
Language                       : English

Audio #2
Format                         : AAC
Duration                       : 1 h 27 min
Bit rate                       : 85.6 kb/s
Channel(s)                     : 6 channels
Channel positions              : Front: L C R, Side: L R, LFE
Sampling rate                  : 44.1 kHz
Frame rate                     : 43.066 FPS (1024 SPF)
Stream size                    : 53.4 MiB (7%)
Language                       : Hindi
 
 

Post a Comment

0 Comments