Search

Harold & Kumar Go To White Castle 2004 M-HD 720p Esub BlyRay Dual Audio English Hindi GOPISAHI

Format                         : Matroska
Format version                 : Version 4 / Version 2
File size                      : 551 MiB
Duration                       : 1 h 28 min
Overall bit rate               : 871 kb/s
Movie name                     : Harold & Kumar Go To White Castle 2004

Video
Format                         : AVC
Codec ID                       : V_MPEG4/ISO/AVC
Duration                       : 1 h 28 min
Bit rate                       : 700 kb/s
Width                          : 1 280 pixels
Height                         : 688 pixels
Display aspect ratio           : 1.85:1
Frame rate mode                : Constant
Frame rate                     : 23.976 (24000/1001) FPS
Stream size                    : 442 MiB (80%)
Writing library                : x264

Audio #1
Format                         : AAC
Duration                       : 1 h 28 min
Bit rate                       : 83.7 kb/s
Channel(s)                     : 6 channels
Channel positions              : Front: L C R, Side: L R, LFE
Sampling rate                  : 44.1 kHz
Frame rate                     : 43.066 FPS (1024 SPF)
Compression mode               : Lossy
Stream size                    : 52.9 MiB (10%)
Language                       : English

Audio #2
Format                         : AAC
Duration                       : 1 h 24 min
Bit rate                       : 88.9 kb/s
Channel(s)                     : 6 channels
Channel positions              : Front: L C R, Side: L R, LFE
Sampling rate                  : 44.1 kHz
Frame rate                     : 43.066 FPS (1024 SPF)
Compression mode               : Lossy
Stream size                    : 53.6 MiB (10%)
Language                       : Hindi

Text
Language                       : English
 
 

Post a Comment

0 Comments