Search

Hate Story 4 2018 Esub Hindi 720p HD GOPISAHI



Format                         : Matroska
Format version                 : Version 4 / Version 2
File size                      : 629 MiB
Duration                       : 2 h 7 min
Overall bit rate               : 689 kb/s
Movie name                     : Hate Story 4 2018 WWW.GOPISAHI.PW

Video
Format                         : AVC
Codec ID                       : V_MPEG4/ISO/AVC
Duration                       : 2 h 7 min
Bit rate                       : 600 kb/s
Width                          : 1 280 pixels
Height                         : 544 pixels
Display aspect ratio           : 2.35:1
Frame rate mode                : Variable
Frame rate                     : 29.241 FPS
Color space                    : YUV
Chroma subsampling             : 4:2:0
Bit depth                      : 8 bits
Scan type                      : Progressive
Bits/(Pixel*Frame)             : 0.029
Stream size                    : 548 MiB (87%)
Title                          : WWW.GOPISAHI.PW
Writing library                : x264 core 148 r2708 86b7198
Language                       : Hindi

Audio
Format                         : AAC
Duration                       : 2 h 7 min
Bit rate                       : 86.7 kb/s
Channel(s)                     : 6 channels
Channel positions              : Front: L C R, Side: L R, LFE
Sampling rate                  : 44.1 kHz
Frame rate                     : 43.066 FPS (1024 SPF)
Compression mode               : Lossy
Stream size                    : 79.2 MiB (13%)
Language                       : Hindi


Text




Post a Comment

0 Comments