Search

Henry's Romance 1993 DVDRip Esub x264 DVD Dual Audio Hindi French GOPISAHI


Original Title: Der grüne Heinrich
Title: Henri le Vert
Year: 1993
Runtime: 110 minutes
Votes: 81
Rating: 6.4/10
Language: French
Country: Switzerland, France, Germany
All Genres: Drama
Plot Outline: It is carnival time in Munich and participants are overindulging in alcohol and sensual pleasures. "Follow us into madness" beckons Lys who is drunk on life, but the sensitive Henry does ...
Director: Thomas Koerfer
Writing By: Barbara Jago,Gottfried Keller,Thomas Koerfer,Peter Müller,
Produced By: Peter-Christian Fueter,
Music: Bruno Coulais
Cast:
Thibault de Montalembert as Henri le Vert 
Andreas Schmid as Henri le Vert, enfant 
Florence Darel as Anna 
Anna Scheschonk as Anna, enfant 
Assumpta Serna as Judith 
Mathias Gnädinger as L'oncle 
Christine Schorn as Mama Rosa 
Arno Chevrier as Lys 
Dominique Sanda as La mère 
Heribert Sasse as Roemer 
iMDB

Format                         : Matroska
Format version                 : Version 4 / Version 2
File size                      : 307 MiB
Duration                       : 1 h 50 min
Overall bit rate               : 387 kb/s
Movie name                     : Henry's Romance 1993 GOPISAHI

Video
Format                         : AVC
Codec ID                       : V_MPEG4/ISO/AVC
Duration                       : 1 h 50 min
Bit rate                       : 200 kb/s
Width                          : 704 pixels
Height                         : 400 pixels
Display aspect ratio           : 16:9
Frame rate mode                : Constant
Frame rate                     : 25.000 FPS
Stream size                    : 158 MiB (52%)
Title                          : GOPISAHI
Writing library                : x264 core 155 r2893 b00bcaf

Audio #1
Format                         : AAC
Duration                       : 1 h 50 min
Bit rate                       : 96.0 kb/s
Channel(s)                     : 6 channels
Channel positions              : Front: L C R, Side: L R, LFE
Sampling rate                  : 44.1 kHz
Frame rate                     : 43.066 FPS (1024 SPF)
Compression mode               : Lossy
Stream size                    : 75.3 MiB (25%)
Title                          : GOPISAHI
Language                       : French

Audio #2
Format                         : AAC
Duration                       : 1 h 50 min
Bit rate                       : 89.7 kb/s
Channel(s)                     : 6 channels
Channel positions              : Front: L C R, Side: L R, LFE
Sampling rate                  : 44.1 kHz
Frame rate                     : 43.066 FPS (1024 SPF)
Compression mode               : Lossy
Stream size                    : 71.1 MiB (23%)
Title                          : GOPISAHI
Language                       : Hindi

Text
Language                       : English
 
 

Post a Comment

0 Comments