Search

Hichki 2018 Hindi 720p HD GOPISAHI


Format                         : Matroska
Format version                 : Version 4 / Version 2
File size                      : 491 MiB
Duration                       : 1 h 56 min
Overall bit rate               : 589 kb/s
Movie name                     : Hichki 2018 GOPISAHI

Video
Format                         : HEVC
Format/Info                    : High Efficiency Video Coding
Duration                       : 1 h 56 min
Bit rate                       : 501 kb/s
Width                          : 1 280 pixels
Height                         : 544 pixels
Display aspect ratio           : 2.35:1
Frame rate mode                : Constant
Frame rate                     : 23.976 (24000/1001) FPS
Color space                    : YUV
Chroma subsampling             : 4:2:0
Bit depth                      : 8 bits
Bits/(Pixel*Frame)             : 0.030
Stream size                    : 417 MiB (85%)
Title                          : GOPISAHI
Writing library                : x265 2.1:[Windows][GCC 5.3.1][64 bit] 8bit

Audio
Format                         : AAC
Duration                       : 1 h 56 min
Bit rate                       : 86.6 kb/s
Channel(s)                     : 6 channels
Channel positions              : Front: L C R, Side: L R, LFE
Sampling rate                  : 44.1 kHz
Frame rate                     : 43.066 FPS (1024 SPF)
Compression mode               : Lossy
Stream size                    : 72.1 MiB (15%)
Title                          : GOPISAHI
Language                       : Hindi