Search

Hostage 2005 720p Esub BRrip Dual Audio English Hindi GOPISAHI

Format                         : Matroska
Format version                 : Version 4 / Version 2
File size                      : 683 MiB
Duration                       : 1 h 53 min
Overall bit rate               : 842 kb/s
Movie name                     : Hostage 2005
Encoded date                   : UTC 2017-08-04 05:41:28
Writing application            : mkvmerge v13.0.0 ('The Juggler') 64bit

Video
ID                             : 1
Format                         : AVCmes
Codec ID                       : V_MPEG4/ISO/AVC
Duration                       : 1 h 53 min
Bit rate                       : 699 kb/s
Width                          : 1 280 pixels
Height                         : 544 pixels
Display aspect ratio           : 2.35:1
Frame rate mode                : Constant
Frame rate                     : 23.976 (23976/1000) FPSive
Stream size                    : 565 MiB (83%)
Writing library                : x264 core 98 r1649 c54c47d

Audio #1
Format                         : AAC
Duration                       : 1 h 53 min
Bit rate                       : 80.3 kb/s
Channel(s)                     : 6 channels
Channel positions              : Front: L C R, Side: L R, LFE
Sampling rate                  : 44.1 kHz
Frame rate                     : 43.066 FPS (1024 SPF)
Stream size                    : 65.1 MiB (10%)
Language                       : English

Audio #2
Codec ID                       : A_AAC
Duration                       : 1 h 53 min
Bit rate                       : 61.7 kb/s
Channel(s)                     : 6 channels
Channel positions              : Front: L C R, Side: L R, LFE
Sampling rate                  : 44.1 kHz
Frame rate                     : 43.066 FPS (1024 SPF)
Stream size                    : 50.0 MiB (7%)
Language                       : Hindi

Text
Language                       : English