Search

Hui Buh 2006 720p BluRay Dual Audio Hindi German GOPISAHI

Format                         : Matroska
Format version                 : Version 4 / Version 2
File size                      : 762 MiB
Duration                       : 1 h 38 min
Overall bit rate               : 1 086 kb/s
Movie name                     : Hui Buh 2006
Video
Format                         : AVC
Codec ID                       : V_MPEG4/ISO/AVC
Duration                       : 1 h 38 min
Bit rate                       : 901 kb/s
Width                          : 1 280 pixels
Height                         : 534 pixels
Display aspect ratio           : 2.2:1
Frame rate mode                : Constant
Frame rate                     : 25.000 FPS
Stream size                    : 630 MiB (83%)
Writing library                : x264 core 142 r2453
Audio #1
Format                         : AAC
Duration                       : 1 h 38 min
Bit rate                       : 91.8 kb/s
Channel(s)                     : 6 channels
Channel positions              : Front: L C R, Side: L R, LFE
Sampling rate                  : 44.1 kHz
Frame rate                     : 43.066 FPS (1024 SPF)
Stream size                    : 64.4 MiB (8%)
Language                       : English
Audio #2
Format                         : AAC
Duration                       : 1 h 38 min
Bit rate                       : 93.7 kb/s
Channel(s)                     : 6 channels
Channel positions              : Front: L C R, Side: L R, LFE
Sampling rate                  : 44.1 kHz
Frame rate                     : 43.066 FPS (1024 SPF)
Stream size                    : 65.8 MiB (9%)
Language                       : Hindi
Text
Language                       : English
 
 

Post a Comment

0 Comments