Search

Imperium 2016 720p Esub BluRay 5.1 Dual Audio English Hindi GOPI


Format : Matroska 
Format version : Version 4 / Version 2 
File size : 825 MiB 
Duration : 1 h 48 min 
Overall bit rate : 1 062 kb/s 
Movie name : Imperium 2016 GOPISAHI.BID 

Video 
Format : AVC 
Codec ID : V_MPEG4/ISO/AVC 
Duration : 1 h 48 min 
Bit rate : 900 kb/s 
Width : 1 280 pixels 
Height : 534 pixels 
Display aspect ratio : 2.40:1 
Original display aspect ratio : 2.40:1 
Frame rate mode : Constant 
Frame rate : 23.976 (24000/1001) FPS 
Color space : YUV 
Chroma subsampling : 4:2:0 
Bit depth : 8 bits 
Scan type : Progressive 
Bits/(Pixel*Frame) : 0.055 
Stream size : 699 MiB (85%) 
Title : GOPISAHI.BID 
Writing library : x264 core 148 

Audio #1 
Format : AAC 
Duration : 1 h 48 min 
Bit rate : 84.4 kb/s 
Channel(s) : 6 channels 
Channel positions : Front: L C R, Side: L R, LFE 
Sampling rate : 44.1 kHz 
Frame rate : 43.066 FPS (1024 SPF) 
Compression mode : Lossy 
Delay relative to video : 464 ms 
Stream size : 65.6 MiB (8%) 
Title : GOPISAHI.BID 
Language : Hindi 

Audio #2 
Format : AAC 
Duration : 1 h 48 min 
Bit rate : 74.5 kb/s 
Channel(s) : 6 channels 
Channel positions : Front: L C R, Side: L R, LFE 
Sampling rate : 44.1 kHz 
Frame rate : 43.066 FPS (1024 SPF) 
Compression mode : Lossy 
Delay relative to video : -43 ms 
Stream size : 57.8 MiB (7%) 
Title : GOPISAHI.BID 
Language : English 

Text 
Language : English 



Post a Comment

0 Comments