Search

In The Name Of The King A Dungeon Siege Tale 2007 720p Esub BluRay Dual Audio English Hindi GOPISAHI

Quality :BluRay 720p
Source :720p.BluRay.x264-REFiNED
Genre :Action, Adventure, Fantasy
Director :Uwe Boll
Actors :Jason Statham, John Rhys-Davies, Leelee Sobieski, Ron Perlman
Country :Canada
General
Unique ID                      : 250185493961434466163...........
Complete name                  : F:\DUB\2007\In The Name Of The King A Dungeon Siege Tale 2007  720p Esub BluRay Dual Audio English Hindi GOPISAHI.mkv
Format                         : Matroska
Format version                 : Version 4 / Version 2
File size                      : 957 MiB
Duration                       : 2 h 7 min
Overall bit rate               : 1 053 kb/s
Movie name                     : In The Name Of The King A Dungeon Siege Tale 2007
Video
Format                         : AVC
Codec ID                       : V_MPEG4/ISO/AVC
Duration                       : 2 h 7 min
Bit rate                       : 871 kb/s
Width                          : 1 280 pixels
Height                         : 544 pixels
Display aspect ratio           : 2.35:1
Frame rate mode                : Constant
Frame rate                     : 23.976 (24000/1001) FPS
Stream size                    : 790 MiB (83%)
Writing library                : x264 core 135 r2345 f0c1c53
Audio #1
Format                         : AAC
Duration                       : 2 h 7 min
Bit rate                       : 89.4 kb/s
Channel(s)                     : 6 channels
Channel positions              : Front: L C R, Side: L R, LFE
Sampling rate                  : 44.1 kHz
Frame rate                     : 43.066 FPS (1024 SPF)
Stream size                    : 81.2 MiB (8%)
Language                       : English
Audio #2
Format                         : AAC
Duration                       : 2 h 7 min
Bit rate                       : 91.9 kb/s
Channel(s)                     : 6 channels
Channel positions              : Front: L C R, Side: L R, LFE
Sampling rate                  : 44.1 kHz
Frame rate                     : 43.066 FPS (1024 SPF)
Stream size                    : 83.5 MiB (9%)
Language                       : Hindi
Text
Language                       : English
 
 

Post a Comment

0 Comments