Search

Inglourious Basterds 2009 720p Esub BluRay Dual Audio English Hindi GOPISAHI



Format                         : Matroska
Format version                 : Version 4 / Version 2
File size                      : 730 MiB
Duration                       : 2 h 32 min
Overall bit rate               : 668 kb/s
Movie name                     : Inglourious Basterds 2009

Video
Format                         : AVC
Codec ID                       : V_MPEG4/ISO/AVC
Duration                       : 2 h 32 min
Bit rate                       : 508 kb/s
Width                          : 1 280 pixels
Height                         : 536 pixels
Display aspect ratio           : 2.40:1
Frame rate mode                : Constant
Frame rate                     : 23.976 (24000/1001) FPS
Stream size                    : 556 MiB (76%)
Writing library                : x264 core 68 r1183M f21daff

Audio #1
Format                         : AAC
Duration                       : 2 h 32 min
Bit rate                       : 70.2 kb/s
Channel(s)                     : 6 channels
Channel positions              : Front: L C R, Side: L R, LFE
Sampling rate                  : 44.1 kHz
Frame rate                     : 43.066 FPS (1024 SPF)
Stream size                    : 76.8 MiB (11%)
Language                       : English

Audio #2
Format                         : AAC
Duration                       : 2 h 32 min
Bit rate                       : 86.6 kb/s
Channel(s)                     : 6 channels
Channel positions              : Front: L C R, Side: L R, LFE
Sampling rate                  : 44.1 kHz
Frame rate                     : 43.066 FPS (1024 SPF)
Delay relative to video        : 800 ms
Stream size                    : 94.6 MiB (13%)
Language                       : Hindi

Text
Language                       : English
 
 
 

Post a Comment

0 Comments