Search

Initial D 2005 720p Esub BluRay Dual Audio English Hindi GOPISAHI

 
General
Format                         : Matroska
Format version                 : Version 4 / Version 2
File size                      : 952 MiB
Duration                       : 1 h 48 min
Overall bit rate               : 1 223 kb/s
Movie name                     : Initial D 2005 GOPISAHI
Video
Format                         : AVC
Codec ID                       : V_MPEG4/ISO/AVC
Duration                       : 1 h 48 min
Bit rate                       : 962 kb/s
Width                          : 1 280 pixels
Height                         : 544 pixels
Display aspect ratio           : 2.35:1
Frame rate mode                : Constant
Frame rate                     : 24.000 FPS
Stream size                    : 749 MiB (79%)
Writing library                : x264 core 148 r2705 3f5ed56
Audio #1
Format                         : AAC
Duration                       : 1 h 44 min CRIDT CUT
Bit rate                       : 93.0 kb/s
Channel(s)                     : 6 channels
Channel positions              : Front: L C R, Side: L R, LFE
Sampling rate                  : 44.1 kHz
Frame rate                     : 43.066 FPS (1024 SPF)
Stream size                    : 69.2 MiB (7%)
Language                       : English
Audio #2
Format                         : AAC
Duration                       : 1 h 44 min  CRIDT CUT
Bit rate                       : 90.6 kb/s
Channel(s)                     : 6 channels
Channel positions              : Front: L C R, Side: L R, LFE
Sampling rate                  : 44.1 kHz
Frame rate                     : 43.066 FPS (1024 SPF)
Stream size                    : 67.4 MiB (7%)
Language                       : Hindi
Audio #3
Format                         : AAC
Duration                       : 1 h 48 min
Bit rate                       : 82.4 kb/s
Channel(s)                     : 6 channels
Channel positions              : Front: L C R, Side: L R, LFE
Sampling rate                  : 44.1 kHz
Frame rate                     : 43.066 FPS (1024 SPF)
Compression mode               : Lossy
Stream size                    : 64.2 MiB (7%)
Language                       :
Text
Language                       : English