Search

Insidious The Last Key 2018 x264 720p Esub BluRay 5.1 Dual Audio English Hindi GOPISAHI


Format                         : Matroska
Format version                 : Version 4 / Version 2
File size                      : 494 MiB
Duration                       : 1 h 43 min
Overall bit rate               : 668 kb/s
Movie name                     : Insidious The Last Key 2018  www.GOPISAHI.pw

Video
Format                         : AVC
Codec ID                       : V_MPEG4/ISO/AVC
Duration                       : 1 h 43 min
Bit rate                       : 500 kb/s
Width                          : 1 264 pixels
Height                         : 534 pixels
Display aspect ratio           : 2.35:1
Frame rate mode                : Constant
Frame rate                     : 23.976 (24000/1001) FPS
Color space                    : YUV
Chroma subsampling             : 4:2:0
Bit depth                      : 8 bits
Scan type                      : Progressive
Bits/(Pixel*Frame)             : 0.031
Stream size                    : 370 MiB (75%)
Title                          : www.GOPISAHI.pw
Writing library                : x264 core 155 r2893 b00bcaf

Audio #1
Format                         : AAC
Duration                       : 1 h 43 min
Bit rate                       : 81.8 kb/s
Channel(s)                     : 6 channels
Channel positions              : Front: L C R, Side: L R, LFE
Sampling rate                  : 44.1 kHz
Frame rate                     : 43.066 FPS (1024 SPF)
Compression mode               : Lossy
Stream size                    : 60.5 MiB (12%)
Title                          : www.GOPISAHI.pw
Language                       : English

Audio #2
Format                         : AAC
Duration                       : 1 h 43 min
Bit rate                       : 83.9 kb/s
Channel(s)                     : 6 channels
Channel positions              : Front: L C R, Side: L R, LFE
Sampling rate                  : 44.1 kHz
Frame rate                     : 43.066 FPS (1024 SPF)
Compression mode               : Lossy
Delay relative to video        : 11 s 500 ms
Stream size                    : 61.9 MiB (13%)
Title                          : www.GOPISAHI.pw
Language                       : Hindi

Text
Title                          : www.GOPISAHI.pw
Language                       : English




Post a Comment

0 Comments