Search This Blog

J Edgar 2011 720p BluRay Dual Audio English Hindi GOPISAHI

General
Format                         : Matroska
Format version                 : Version 4 / Version 2
File size                      : 953 MiB
Duration                       : 2 h 16 min
Overall bit rate               : 974 kb/s
Movie name                     : J Edgar 2011

Video
Format                         : AVC
Format/Info                    : Advanced Video Codec
Format profile                 : [email protected]
Codec ID                       : V_MPEG4/ISO/AVC
Duration                       : 2 h 16 min
Bit rate                       : 805 kb/s
Width                          : 1 280 pixels
Height                         : 536 pixels
Display aspect ratio           : 2.40:1
Frame rate mode                : Constant
Frame rate                     : 23.976 (24000/1001) FPS
Stream size                    : 786 MiB (82%)
Writing library                : x264

Audio #1
Format                         : AAC
Duration                       : 2 h 16 min
Bit rate                       : 76.1 kb/s
Channel(s)                     : 6 channels
Channel positions              : Front: L C R, Side: L R, LFE
Sampling rate                  : 44.1 kHz
Frame rate                     : 43.066 FPS (1024 SPF)
Stream size                    : 74.5 MiB (8%)
Language                       : English

Audio #2
Format                         : AAC
Duration                       : 2 h 14 min
Bit rate                       : 93.2 kb/s
Channel(s)                     : 6 channels
Channel positions              : Front: L C R, Side: L R, LFE
Sampling rate                  : 44.1 kHz
Frame rate                     : 43.066 FPS (1024 SPF)
Stream size                    : 89.8 MiB (9%)
Language                       : Hindi






Post a Comment

6 Comments