Search

Jack Reacher Never Go Back 2016 720p Esub BluRay 5.1 Dual Audio English Hindi GOPISAHI.BID


Format                         : Matroska
Format version                 : Version 4 / Version 2
File size                      : 571 MiB
Duration                       : 1 h 58 min
Overall bit rate               : 676 kb/s
Movie name                     : Jack Reacher Never Go Back 2016 GOPISAHI.BID

Video
Format                         : HEVC
Codec ID                       : V_MPEGH/ISO/HEVC
Duration                       : 1 h 58 min
Bit rate                       : 501 kb/s
Width                          : 1 280 pixels
Height                         : 536 pixels
Display aspect ratio           : 2.40:1
Frame rate mode                : Constant
Frame rate                     : 23.976 (24000/1001) FPS
Color space                    : YUV
Chroma subsampling             : 4:2:0
Bit depth                      : 8 bits
Bits/(Pixel*Frame)             : 0.030
Stream size                    : 423 MiB (74%)
Title                          : GOPISAHI.BID
Writing library                : x265 2.1:[Windows][GCC 5.3.1][64 bit] 8bit

Audio #1
Format                         : AAC
Duration                       : 1 h 58 min
Bit rate                       : 86.1 kb/s
Channel(s)                     : 6 channels
Channel positions              : Front: L C R, Side: L R, LFE
Sampling rate                  : 44.1 kHz
Frame rate                     : 43.066 FPS (1024 SPF)
Compression mode               : Lossy
Stream size                    : 72.7 MiB (13%)
Title                          : GOPISAHI.BID
Language                       : English

Audio #2
Format                         : AAC
Duration                       : 1 h 58 min
Bit rate                       : 86.3 kb/s
Channel(s)                     : 6 channels
Channel positions              : Front: L C R, Side: L R, LFE
Sampling rate                  : 44.1 kHz
Frame rate                     : 43.066 FPS (1024 SPF)
Compression mode               : Lossy
Stream size                    : 72.9 MiB (13%)
Language                       : Hindi

Text
Language                       : English




Post a Comment

0 Comments