Search

Kiss Kiss Bang Bang 2005 720p Esub BRRIP Dual Audio English Hindi GOPISAHI

Video
ID                             : 1
Format                         : AVC
Codec ID                       : V_MPEG4/ISO/AVC
Duration                       : 1 h 42 min
Bit rate                       : 514 kb/s
Width                          : 1 280 pixels
Height                         : 528 pixels
Display aspect ratio           : 2.40:1
Frame rate mode                : Constant
Frame rate                     : 23.976 (24000/1001) FPSive
Bits/(Pixel*Frame)             : 0.032
Stream size                    : 377 MiB (81%)
Writing library                : x264 core 100 r1659 57b2e56
Audio #1
Format                         : AAC
Duration                       : 1 h 42 min
Bit rate                       : 35.0 kb/s
Channel(s)                     : 2 channels
Channel positions              : Front: L R
Sampling rate                  : 48.0 kHz / 24.0 kHz
Frame rate                     : 23.438 FPS (1024 SPF)
Stream size                    : 25.7 MiB (6%)
Language                       : English
Audio #2
Format                         : AAC
Duration                       : 1 h 42 min
Bit rate                       : 88.1 kb/s
Channel(s)                     : 6 channels
Channel positions              : Front: L C R, Side: L R, LFE
Sampling rate                  : 44.1 kHz
Frame rate                     : 43.066 FPS (1024 SPF)
Stream size                    : 62.1 MiB (13%)
Language                       : Hindi
Text
Duration                       : 1 h 41 min
Stream size                    : 58.8 KiB (0%)
Language                       : English