Search

Laavan Phere 2018 DVDScr Punjabi GOPISAHI


Format version                 : Version 4 / Version 2
File size                      : 304 MiB
Duration                       : 1 h 58 min
Overall bit rate               : 359 kb/s
Movie name                     :  Laavan Phere 2018 GOPISAHI

Video
ID                             : 1
Format                         : AVC
Format/Info                    : Advanced Video Codec
Format profile                 : [email protected]
Format settings                : CABAC / 16 Ref Frames
Format settings, CABAC         : Yes
Format settings, ReFrames      : 16 frames
Codec ID                       : V_MPEG4/ISO/AVC
Duration                       : 1 h 58 min
Bit rate                       : 300 kb/s
Width                          : 720 pixels
Height                         : 404 pixels
Display aspect ratio           : 16:9
Frame rate mode                : Constant
Frame rate                     : 29.970 (30000/1001) FPS
Color space                    : YUV
Chroma subsampling             : 4:2:0
Bit depth                      : 8 bits
Scan type                      : Progressive
Bits/(Pixel*Frame)             : 0.034
Stream size                    : 254 MiB (84%)
Title                          : GOPISAHI
Writing library                : x264 core 155 r2893 b00bcaf

Audio
ID                             : 2
Format                         : AAC
Format/Info                    : Advanced Audio Codec
Format profile                 : LC
Codec ID                       : A_AAC-2
Duration                       : 1 h 58 min
Bit rate                       : 56.5 kb/s
Channel(s)                     : 2 channels
Channel positions              : Front: L R
Sampling rate                  : 44.1 kHz
Frame rate                     : 43.066 FPS (1024 SPF)
Compression mode               : Lossy
Stream size                    : 48.0 MiB (16%)
Title                          : GOPISAHI
Language                       : Panjabi




Post a Comment

0 Comments