Search

Lady and The Tramp 1955 720p Esub BRRIP Dual Audio English Hindi GOPISAHI


Format                         : Matroska
Format version                 : Version 4 / Version 2
File size                      : 421 MiB
Duration                       : 1 h 15 min
Overall bit rate               : 779 kb/s
Movie name                     : Lady and The Tramp 1955 GOPISAHI

Video
Format                         : AVC
Codec ID                       : V_MPEG4/ISO/AVC
Duration                       : 1 h 15 min
Bit rate                       : 600 kb/s
Width                          : 1 280 pixels
Height                         : 720 pixels
Display aspect ratio           : 16:9
Frame rate mode                : Constant
Frame rate                     : 23.976 (24000/1001) FPS
Stream size                    : 324 MiB (77%)
Writing library                : x264

Audio #1
Format                         : AAC
Duration                       : 1 h 15 min
Bit rate                       : 89.1 kb/s
Channel(s)                     : 6 channels
Channel positions              : Front: L C R, Side: L R, LFE
Sampling rate                  : 44.1 kHz
Frame rate                     : 43.066 FPS (1024 SPF)
Stream size                    : 48.0 MiB (11%)
Language                       : English

Audio #2
Format                         : AAC
Duration                       : 1 h 15 min
Bit rate                       : 88.5 kb/s
Channel(s)                     : 6 channels
Channel positions              : Front: L C R, Side: L R, LFE
Sampling rate                  : 44.1 kHz
Frame rate                     : 43.066 FPS (1024 SPF)
Stream size                    : 47.5 MiB (11%)
Language                       : Hindi

Text
Language                       : English

Post a Comment

0 Comments