Search

Lahoriye 2017 720p Esub HDRIP Punjabi GOPISAHI

Video
Format                         : AVC
Codec ID                       : V_MPEG4/ISO/AVC
Duration                       : 2 h 15 min
Bit rate                       : 825 kb/s
Width                          : 1 280 pixels
Height                         : 720 pixels
Stream size                    : 799 MiB (89%)
Writing library                : x264 core 146 r2538 121396c

Audio
Format                         : AC-3
Duration                       : 2 h 15 min
Bit rate mode                  : Constant
Bit rate                       : 96.0 kb/s
Channel(s)                     : 6 channels
Channel positions              : Front: L C R, Side: L R, LFE
Sampling rate                  : 44.1 kHz
Stream size                    : 93.0 MiB (10%)
Language                       : Panjabi
 

Post a Comment

0 Comments