Search

Life 1999 720p x264 Esub BluRay Dual Audio English Hindi GOPISAHI



Title: Life
Year: 1999
Runtime: 108 minutes
Votes: 37212
Rating: 6.7/10
Language: English
Country: USA
All Genres: Comedy, Crime, Drama
Plot Outline: In 1932, two strangers are wrongfully convicted and develop a strong friendship in prison that lasts them through the 20th century.
Tagline: Share it with someone you love.
Director: Ted Demme
Writing By: Robert Ramsey,Matthew Stone,
Produced By: James D. Brubaker,Tina L. Fortenberry,Brian Grazer,Karen Kehela Sherwood,Eddie Murphy,Jim Whitaker,Ray Murphy Jr.,
Music: Wyclef Jean
Cast:
Eddie Murphy as Rayford Gibson 
Martin Lawrence as Claude Banks 
Obba Babatundé as Willie Long 
Nick Cassavetes as Sergeant Dillard 
Anthony Anderson as Cookie 
Barry Shabaka Henley as Pokerface 
Brent Jennings as Hoppin' Bob 
Bernie Mac as Jangle Leg 
Miguel A. Núñez Jr. as Biscuit 
Michael Taliferro as Goldmouth 
Trailers:
Life (1999)

Format                         : Matroska
Format version                 : Version 4 / Version 2
File size                      : 620 MiB
Duration                       : 1 h 48 min
Overall bit rate               : 799 kb/s
Movie name                     : Life 1999 GOPISAHI

Video
Format                         : AVC
Codec ID                       : V_MPEG4/ISO/AVC
Duration                       : 1 h 48 min
Bit rate                       : 600 kb/s
Width                          : 1 280 pixels
Height                         : 692 pixels
Display aspect ratio           : 1.85:1
Original display aspect ratio  : 1.85:1
Frame rate mode                : Constant
Frame rate                     : 23.976 (24000/1001) FPS
Stream size                    : 465 MiB (75%)
Title                          : GOPISAHI
Writing library                : x264 core 155 r2893 b00bcaf

Audio #1
Format                         : AAC
Duration                       : 1 h 48 min
Bit rate                       : 90.7 kb/s
Channel(s)                     : 6 channels
Channel positions              : Front: L C R, Side: L R, LFE
Sampling rate                  : 44.1 kHz
Frame rate                     : 43.066 FPS (1024 SPF)
Compression mode               : Lossy
Delay relative to video        : 22 ms
Stream size                    : 70.4 MiB (11%)
Title                          : GOPISAHI
Language                       : Hindi

Audio #2
Format                         : AAC
Duration                       : 1 h 48 min
Bit rate                       : 106 kb/s
Channel(s)                     : 6 channels
Channel positions              : Front: L C R, Side: L R, LFE
Sampling rate                  : 44.1 kHz
Frame rate                     : 43.066 FPS (1024 SPF)
Compression mode               : Lossy
Stream size                    : 82.3 MiB (13%)
Title                          : GOPISAHI
Language                       : Hindi

Text
Language                       : English




Post a Comment

0 Comments