Search

Lights Out 2016 720p Esub BluRay 5.1 Dual Audio English Hindi GOPISAHI.BID


Format                         : Matroska
Format version                 : Version 4 / Version 2
File size                      : 387 MiB
Duration                       : 1 h 20 min
Overall bit rate               : 668 kb/s
Movie name                     : GOPISAHI.BID

Video
Format                         : HEVC
Codec ID                       : V_MPEGH/ISO/HEVC
Duration                       : 1 h 20 min
Bit rate                       : 500 kb/s
Width                          : 1 278 pixels
Height                         : 536 pixels
Display aspect ratio           : 2.40:1
Frame rate mode                : Constant
Frame rate                     : 23.976 (24000/1001) FPS
Color space                    : YUV
Chroma subsampling             : 4:2:0
Bit depth                      : 8 bits
Bits/(Pixel*Frame)             : 0.030
Stream size                    : 290 MiB (75%)
Title                          : GOPISAHI.BID
Writing library                : x265 2.1:[Windows][GCC 5.3.1][64 bit] 8bit

Audio #1
Format                         : AAC
Duration                       : 1 h 20 min
Bit rate                       : 82.4 kb/s
Channel(s)                     : 6 channels
Channel positions              : Front: L C R, Side: L R, LFE
Sampling rate                  : 44.1 kHz
Frame rate                     : 43.066 FPS (1024 SPF)
Compression mode               : Lossy
Stream size                    : 47.7 MiB (12%)
Language                       : English

Audio #2
Format                         : AAC
Bit rate                       : 82.7 kb/s
Channel(s)                     : 6 channels
Channel positions              : Front: L C R, Side: L R, LFE
Sampling rate                  : 44.1 kHz
Frame rate                     : 43.066 FPS (1024 SPF)
Compression mode               : Lossy
Stream size                    : 47.9 MiB (12%)
Title                          : GOPISAHI.BID
Language                       : Hindi

Text
Language                       : English





Post a Comment

0 Comments