Search

Lucknow Central 2017 720p Esub BluRay 2017 Hindi GOPISAHI

 
 Format                         : Matroska
Format version                 : Version 4 / Version 2
File size                      : 713 MiB
Duration                       : 2 h 24 min
Overall bit rate               : 689 kb/s
Movie name                     : Lucknow Central 2017 GOPISAHI
Video
Format                         : AVC
Format/Info                    : Advanced Video Codec
Codec ID                       : V_MPEG4/ISO/AVC
Duration                       : 2 h 24 min
Bit rate                       : 600 kb/s
Width                          : 1 280 pixels
Height                         : 544 pixels
Display aspect ratio           : 2.35:1
Frame rate mode                : Constant
Frame rate                     : 24.000 FPS
Stream size                    : 621 MiB (87%)
Title                          : GOPISAHI
Writing library                : x264 core 152 r2851 ba24899
Audio
Format                         : AAC
Duration                       : 2 h 24 min
Bit rate                       : 86.7 kb/s
Channel(s)                     : 6 channels
Channel positions              : Front: L C R, Side: L R, LFE
Sampling rate                  : 44.1 kHz
Frame rate                     : 43.066 FPS (1024 SPF)
Stream size                    : 89.8 MiB (13%)
Language                       : Hindi
Text
Language                       : English
 
 

Post a Comment

0 Comments