Search

Madagascar 2005 720p Esub BRrip Dual Audio English Hindi GOPISAHI

http://i.imgur.com/Od9lhPz.jpg
Matroska
Format version                 : Version 4 / Version 2
File size                      : 559 MiB
Duration                       : 1 h 25 min
Overall bit rate               : 909 kb/s
Movie name                     : Madagascar 2005
Encoded date                   : UTC 2017-08-15 05:43:04
Video
Format                         : AVC
Codec ID                       : V_MPEG4/ISO/AVC
Duration                       : 1 h 25 min
Bit rate                       : 715 kb/s
Width                          : 1 280 pixels
Height                         : 720 pixels
Display aspect ratio           : 16:9
Frame rate mode                : Constant
Frame rate                     : 23.976 (24000/1001) FPS
Stream size                    : 439 MiB (79%)
Writing library                : x264 core 120 r2164 da19765
Audio #1
Format                         : AAC
Duration                       : 1 h 25 min
Bit rate                       : 88.5 kb/s
Channel(s)                     : 6 channels
Channel positions              : Front: L C R, Side: L R, LFE
Sampling rate                  : 44.1 kHz
Frame rate                     : 43.066 FPS (1024 SPF)
Stream size                    : 54.4 MiB (10%)
Language                       : English
Audio #2
Format                         : AAC
Duration                       : 1 h 25 min
Bit rate                       : 92.2 kb/s
Channel(s)                     : 6 channels
Channel positions              : Front: L C R, Side: L R, LFE
Sampling rate                  : 44.1 kHz
Frame rate                     : 43.066 FPS (1024 SPF)
Stream size                    : 56.7 MiB (10%)
Language                       : Hindi
Text #1
Format                         : PGS
Language                       : Hindi
Text #2
Language                       : English