Search

Maze Runner The Death Cure 2018 720p Esub BluRay 5.1 Dual Audio English Hindi



Format : Matroska 
Format version : Version 4 / Version 2 
File size : 692 MiB 
Duration : 2 h 23 min 
Overall bit rate : 672 kb/s 
Movie name : Maze Runner The Death Cure 2018 GOPISAHI.BI 

Video 
Format : HEVC 
Duration : 2 h 23 min 
Bit rate : 501 kb/s 
Width : 1 280 pixels 
Height : 536 pixels 
Display aspect ratio : 2.40:1 
Frame rate mode : Constant 
Frame rate : 23.976 (24000/1001) FPS 
Stream size : 515 MiB (75%) 
Title : GOPISAHI.BID 
Writing library : x265 2.1:[Windows][GCC 5.3.1][64 bit] 8bit 

Audio #1 
Format : AAC 
Duration : 2 h 23 min 
Bit rate : 84.0 kb/s 
Channel(s) : 6 channels 
Channel positions : Front: L C R, Side: L R, LFE 
Sampling rate : 44.1 kHz 
Frame rate : 43.066 FPS (1024 SPF) 
Compression mode : Lossy 
Stream size : 86.5 MiB (12%) 
Title : GOPISAHI.BID 
Language : English 

Audio #2 
Format : AAC 
Duration : 2 h 23 min 
Bit rate : 84.5 kb/s 
Channel(s) : 6 channels 
Channel positions : Front: L C R, Side: L R, LFE 
Sampling rate : 44.1 kHz 
Frame rate : 43.066 FPS (1024 SPF) 
Compression mode : Lossy 
Stream size : 86.9 MiB (13%) 
Title : GOPISAHI.BID 
Language : Hindi 

Text 
Language : English 



Post a Comment

2 Comments

  1. Plz upload Maze Runner The Scorch Trials (2015) Dual Audio Hindi Dubbed Original Proper Sync in 720p HEVC

    ReplyDelete
  2. plz upload the jumper movie

    ReplyDelete