Search

Mickey Donald Goofy The Three Musketeers 2004 720p Esub BlyRay Dual Audio English Hindi GOPISAHI


Title: Mickey, Donald, Goofy: The Three Musketeers
Year: 2004
Runtime: 68 minutes
Votes: 5575
Rating: 6.4/10
Language: English
Country: USA
All Genres: Animation, Action, Adventure, Comedy, Family, Musical, Romance
Plot Outline: Mickey, Donald and Goofy are the French three Musketeers.
Tagline: All for fun and fun for all
Director: Donovan Cook
Writing By: Evan Spiliotopoulos,David Mickey Evans,Alexandre Dumas,
Produced By: Laurel Betts,Debbie Cramb,Maude Lewis,Margot Pipkin,
Music: Bruce Broughton
Cast:
Wayne Allwine as Mickey Mouse 
Tony Anselmo as Donald Duck 
Bill Farmer as Goofy / Additional Voices 
Russi Taylor as Minnie 
Tress MacNeille as Daisy 
Jim Cummings as Pete 
April Winchell as Clarabelle / Additional Voices 
Jeff Bennett as The Beagle Boys / Additional Voices 
Maurice LaMarche as The Beagle Boys / Additional Voices 
Rob Paulsen as The Troubadour 
Trailers:
Mickey, Donald & Goofy: The Three Musketeers
Mickey, Donald & Goofy: The Three Musketeers

Format                         : Matroska
Format version                 : Version 4 / Version 2
File size                      : 726 MiB
Duration                       : 1 h 7 min
Overall bit rate               : 1 499 kb/s
Movie name                     : Mickey Donald Goofy The Three Musketeers 2004

Video
Format                         : AVC
Codec ID                       : V_MPEG4/ISO/AVC
Duration                       : 1 h 7 min
Bit rate                       : 1 325 kb/s
Width                          : 1 280 pixels
Height                         : 720 pixels
Display aspect ratio           : 16:9
Frame rate mode                : Constant
Frame rate                     : 23.976 (24000/1001) FPS
Original frame rate            : 23.976 (23976/1000) FPS
Stream size                    : 640 MiB (88%)
Writing library                : x264 core 142 r2409 d6b4e63

Audio #1
Format                         : AAC
Duration                       : 1 h 7 min
Bit rate                       : 84.7 kb/s
Channel(s)                     : 6 channels
Channel positions              : Front: L C R, Side: L R, LFE
Sampling rate                  : 44.1 kHz
Frame rate                     : 43.066 FPS (1024 SPF)
Stream size                    : 41.0 MiB (6%)
Language                       : Hindi

Audio #2
Format                         : AAC
Duration                       : 1 h 7 min
Bit rate                       : 89.0 kb/s
Channel(s)                     : 6 channels
Channel positions              : Front: L C R, Side: L R, LFE
Sampling rate                  : 44.1 kHz
Frame rate                     : 43.066 FPS (1024 SPF)
Stream size                    : 43.1 MiB (6%)
Language                       : English

Text
Language                       : English
 
 
 
 

Post a Comment

0 Comments