Search

Middle Men 2009 720p Esub BluRay Dual Audio English Hindi GOPISAHI


Format                         : Matroska
Format version                 : Version 4 / Version 2
File size                      : 649 MiB
Duration                       : 1 h 51 min
Overall bit rate               : 814 kb/s
Movie name                     : Middle Men 2009 GOPISAH

Video
Format                         : AVC
Codec ID                       : V_MPEG4/ISO/AVC
Duration                       : 1 h 51 min
Bit rate                       : 634 kb/s
Width                          : 1 280 pixels
Height                         : 528 pixels
Display aspect ratio           : 2.40:1
Frame rate mode                : Constant
Frame rate                     : 23.976 (23976/1000) FPS
Stream size                    : 506 MiB (78%)
Language                       : English

Audio #1
Format                         : AAC
Duration                       : 1 h 51 min
Bit rate                       : 90.7 kb/s
Channel(s)                     : 6 channels
Channel positions              : Front: L C R, Side: L R, LFE
Sampling rate                  : 44.1 kHz
Frame rate                     : 43.066 FPS (1024 SPF)
Stream size                    : 72.3 MiB (11%)
Language                       : Hindi

Audio #2
Format                         : AAC
Duration                       : 1 h 51 min
Bit rate                       : 85.9 kb/s
Channel(s)                     : 6 channels
Channel positions              : Front: L C R, Side: L R, LFE
Sampling rate                  : 44.1 kHz
Frame rate                     : 43.066 FPS (1024 SPF)
Stream size                    : 68.5 MiB (11%)
Language                       : English

Text
Language                       : English
 
 

Post a Comment

0 Comments