Search

Mike And Dave Need Wedding Dates 2016 720p Esub BluRay 5.1 Dual Audio English Hindi GOPISAHI.BID



Format                         : Matroska
Format version                 : Version 4 / Version 2
File size                      : 483 MiB
Duration                       : 1 h 38 min
Overall bit rate               : 684 kb/s

Video
ID                             : 1
Format                         : HEVC
Format/Info                    : High Efficiency Video Coding
Format profile                 : [email protected]@Main
Codec ID                       : V_MPEGH/ISO/HEVC
Duration                       : 1 h 38 min
Bit rate                       : 500 kb/s
Width                          : 1 280 pixels
Height                         : 536 pixels
Display aspect ratio           : 2.40:1
Frame rate mode                : Constant
Frame rate                     : 23.976 (24000/1001) FPS
Stream size                    : 353 MiB (73%)
Title                          : GOPISAHI.BID
Writing library                : x265 2.1:[Windows][GCC 5.3.1][64 bit] 8bit

Audio #1
Format                         : AAC
Duration                       : 1 h 38 min
Bit rate                       : 91.2 kb/s
Channel(s)                     : 6 channels
Channel positions              : Front: L C R, Side: L R, LFE
Sampling rate                  : 44.1 kHz
Frame rate                     : 43.066 FPS (1024 SPF)
Compression mode               : Lossy
Stream size                    : 64.3 MiB (13%)
Language                       : English

Audio #2
Format                         : AAC
Duration                       : 1 h 38 min
Bit rate                       : 90.8 kb/s
Channel(s)                     : 6 channels
Channel positions              : Front: L C R, Side: L R, LFE
Sampling rate                  : 44.1 kHz
Frame rate                     : 43.066 FPS (1024 SPF)
Compression mode               : Lossy
Stream size                    : 64.0 MiB (13%)
Title                          : GOPISAHI.BID
Language                       : Hindi

Text
Language                       : English








Post a Comment

0 Comments