Search

Mindhunters 2004 720p Esub BluRay Dual Audio English Hindi GOPISAHI

Format                         : Matroska
Format version                 : Version 4 / Version 2
File size                      : 767 MiB
Duration                       : 1 h 45 min
Overall bit rate               : 1 011 kb/s
Movie name                     : Mindhunters 2004
Video
Format                         : AVC
Codec ID                       : V_MPEG4/ISO/AVC
Duration                       : 1 h 45 min
Bit rate                       : 831 kb/s
Width                          : 1 280 pixels
Height                         : 544 pixels
Display aspect ratio           : 2.35:1
Frame rate mode                : Constant
Frame rate                     : 23.976 (23976/1000) FPS
Original frame rate            : 23.976 (24000/1001) FPS
Stream size                    : 628 MiB (82%)
Writing library                : x264 core 129 r2230 1cffe9f
Audio #1
Format                         : AAC
Duration                       : 1 h 44 min
Bit rate                       : 89.0 kb/s
Channel(s)                     : 6 channels
Channel positions              : Front: L C R, Side: L R, LFE
Sampling rate                  : 44.1 kHz
Frame rate                     : 43.066 FPS (1024 SPF)
Stream size                    : 66.3 MiB (9%)
Language                       : English
Audio #2
Format                         : AAC
Duration                       : 1 h 45 min
Bit rate                       : 92.3 kb/s
Channel(s)                     : 6 channels
Channel positions              : Front: L C R, Side: L R, LFE
Sampling rate                  : 44.1 kHz
Frame rate                     : 43.066 FPS (1024 SPF)
Stream size                    : 69.8 MiB (9%)
Language                       : Hindi
Text
Language                       : English
 
 
 

Post a Comment

0 Comments