Search

Motor Mitraan Di 2017 DVD-RIP Punjabi GOPI SAHI

Motor Mitraan Di Poster
Video
ID                             : 1
Codec ID                       : V_MPEG4/ISO/AVC
Duration                       : 1 h 57 min
Bit rate                       : 799 kb/s
Width                          : 720 pixels
Height                         : 400 pixels
Display aspect ratio           : 16:9
Frame rate mode                : Constant
Frame rate                     : 23.976 (24000/1001) FPS
Color space                    : YUV
Chroma subsampling             : 4:2:0
Bit depth                      : 8 bits
Scan type                      : Progressive
Bits/(Pixel*Frame)             : 0.116
Stream size                    : 680 MiB (89%)
Writing library                : x264 core 130 r2273 b3065e6

Audio
ID                             : 2
Format                         : AAC
Codec ID                       : A_AAC
Duration                       : 1 h 57 min
Bit rate                       : 93.3 kb/s
Channel(s)                     : 2 channels
Channel positions              : Front: L R
Sampling rate                  : 44.1 kHz
Frame rate                     : 43.066 FPS (1024 spf)
Compression mode               : Lossy
Stream size                    : 78.1 MiB (10%)
http://i.imgur.com/UqEPaB2.jpg
http://i.imgur.com/n25Tn8A.jpg

Post a Comment

0 Comments