Search

Mr Bean s Holiday 2007 720p Esub BluRay Dual Audio English Hindi GOPISAHI

Format                         : Matroska
Format version                 : Version 4 / Version 2
File size                      : 752 MiB
Duration                       : 1 h 29 min
Overall bit rate               : 1 174 kb/s
Movie name                     : Mr Bean s Holiday 2007

Video
Format                         : AVC
Codec ID                       : V_MPEG4/ISO/AVC
Duration                       : 1 h 29 min
Bit rate                       : 993 kb/s
Width                          : 1 280 pixels
Height                         : 688 pixels
Display aspect ratio           : 1.85:1
Frame rate mode                : Constant
Frame rate                     : 23.976 (24000/1001) FPS
Stream size                    : 636 MiB (85%)
Writing library                : x264

Audio #1
Format                         : AAC
Duration                       : 1 h 29 min
Bit rate                       : 89.6 kb/s
Channel(s)                     : 6 channels
Channel positions              : Front: L C R, Side: L R, LFE
Sampling rate                  : 44.1 kHz
Frame rate                     : 43.066 FPS (1024 SPF)
Stream size                    : 57.4 MiB (8%)
Language                       : English

Audio #2
Format                         : AAC
Duration                       : 1 h 24 min
Bit rate                       : 96.0 kb/s
Channel(s)                     : 6 channels
Channel positions              : Front: L C R, Side: L R, LFE
Sampling rate                  : 44.1 kHz
Frame rate                     : 43.066 FPS (1024 SPF)
Stream size                    : 56.9 MiB (8%)
Language                       : Hindi

Text
Language                       : English
 
 

Post a Comment

0 Comments