Search

Mukkabaaz 2018 HD 720p Hindi GOPISAHI

Original Title: Mukkabaaz
Title: The Brawler
Year: 2017
Runtime: 154 minutes
Votes: 1097
Rating: 8.5/10
Language: Hindi
Country: India
All Genres: Action, Drama, Sport
Plot Outline: A lower caste boxer struggles to make his mark on the boxing world.
Director: Anurag Kashyap
Writing By: Ranjan Chandel,Anurag Kashyap,Prasoon Mishra,Singh Srinet Mukti,K.D. Satyam,Vineet Kumar Singh
Produced By: Vishesh Agrawal,Anurag Kashyap,Madhu Mantena Varma,Vikramaditya Motwane,Ajay Rai,Anand L. Rai,
Music: Rachita Arora 
Cast:
Vineet Kumar Singh as Shravan 
Zoya Hussain as Sunaina 
Ravi Kishan as Sanjay Kumar 
Jimmy Shergill as Bhagwan 
Rajesh Tailang as Vijay Singh 
Shreedhar Dubey as Gopal Tiwari 
Trailers:
Mukkabaaz Trailer

Format                         : Matroska
Format version                 : Version 4 / Version 2
File size                      : 656 MiB
Duration                       : 2 h 35 min
Overall bit rate               : 590 kb/s
Movie name                     : Mukkabaaz 2018 GOPISAHI

Video
Format                         : AVC
Codec ID                       : V_MPEG4/ISO/AVC
Duration                       : 2 h 35 min
Bit rate                       : 500 kb/s
Width                          : 1 280 pixels
Height                         : 544 pixels
Display aspect ratio           : 2.35:1
Frame rate mode                : Constant
Frame rate                     : 24.000 FPS
Stream size                    : 556 MiB (85%)
Title                          : GOPISAHI
Writing library                : x264 core 155 r2893 b00bcaf

Audio
Format                         : AAC
Duration                       : 2 h 35 min
Bit rate                       : 88.6 kb/s
Channel(s)                     : 6 channels
Channel positions              : Front: L C R, Side: L R, LFE
Sampling rate                  : 44.1 kHz
Frame rate                     : 43.066 FPS (1024 SPF)
Compression mode               : Lossy
Stream size                    : 98.5 MiB (15%)
Title                          : GOPISAHI
Language                       : Hindi
 
 

Post a Comment

0 Comments