Search

National Treasure 2004 2007 DUAL LOGY 720p Esub BluRay Dual Audio English Hindi GOPI SAHI

National Treasure: Book of Secrets Poster

Video
ID                             : 1
Format                         : AVC
Format/Info                    : Advanced Video Codec
Format profile                 : [email protected]
Format settings, CABAC         : Yes
Format settings, ReFrames      : 12 frames
Codec ID                       : V_MPEG4/ISO/AVC
Duration                       : 2 h 4 min
Bit rate                       : 856 kb/s
Width                          : 1 280 pixels
Height                         : 532 pixels
Display aspect ratio           : 2.40:1
Frame rate mode                : Constant
Frame rate                     : 23.976 (24000/1001) FPS
Color space                    : YUV
Chroma subsampling             : 4:2:0
Bit depth                      : 8 bits
Scan type                      : Progressive
Bits/(Pixel*Frame)             : 0.052
Stream size                    : 762 MiB (82%)
Writing library                : x264 core 125 r2200 999b753
Language                       : English
Default                        : Yes
Forced                         : No
Audio #1
ID                             : 3
Format                         : AAC
Format/Info                    : Advanced Audio Codec
Format profile                 : LC
Codec ID                       : A_AAC
Duration                       : 2 h 4 min
Bit rate                       : 89.3 kb/s
Channel(s)                     : 6 channels
Channel positions              : Front: L C R, Side: L R, LFE
Sampling rate                  : 44.1 kHz
Frame rate                     : 43.066 FPS (1024 spf)
Stream size                    : 79.5 MiB (9%)
Language                       : English
Default                        : Yes
Forced                         : No
Audio #2
ID                             : 4
Format                         : AAC
Format/Info                    : Advanced Audio Codec
Format profile                 : LC
Codec ID                       : A_AAC
Duration                       : 2 h 4 min
Bit rate                       : 92.6 kb/s
Channel(s)                     : 6 channels
Channel positions              : Front: L C R, Side: L R, LFE
Sampling rate                  : 44.1 kHz
Frame rate                     : 43.066 FPS (1024 spf)
Stream size                    : 82.4 MiB (9%)
Language                       : Hindi
Default                        : No
Forced                         : No
Text
ID                             : 2
Format                         : UTF-8
Codec ID                       : S_TEXT/UTF8
Codec ID/Info                  : UTF-8 Plain Text
Duration                       : 1 h 56 min
Bit rate                       : 69 b/s
Count of elements              : 1600
Language                       : English
Default                        : Yes
Forced                         : No
http://i.imgur.com/Iz3tUpl.jpg
 http://i.imgur.com/HRGlsRM.jpg
 http://i.imgur.com/AWwYDeI.jpg
 National Treasure 2004 720p Esub BluRay Dual Audio English Hindi GOPI SAHI
National Treasure Poster
Video
ID                             : 1
Format                         : AVC
Format/Info                    : Advanced Video Codec
Format profile                 : [email protected]
Format settings, CABAC         : Yes
Format settings, ReFrames      : 12 frames
Codec ID                       : V_MPEG4/ISO/AVC
Duration                       : 2 h 11 min
Bit rate                       : 808 kb/s
Width                          : 1 280 pixels
Height                         : 532 pixels
Display aspect ratio           : 2.40:1
Frame rate mode                : Constant
Frame rate                     : 23.976 (24000/1001) FPS
Color space                    : YUV
Chroma subsampling             : 4:2:0
Bit depth                      : 8 bits
Writing library                : x264 core 125 r2200 999b753
Language                       : English
Default                        : Yes
Forced                         : No
Audio #1
ID                             : 2
Format                         : AAC
Format/Info                    : Advanced Audio Codec
Format profile                 : HE-AAC / LC
Codec ID                       : A_AAC
Duration                       : 2 h 1 min
Bit rate                       : 36.0 kb/s
Channel(s)                     : 2 channels
Channel positions              : Front: L R
Sampling rate                  : 48.0 kHz / 24.0 kHz
Frame rate                     : 23.438 FPS (1024 spf)
Language                       : English
Default                        : No
Forced                         : No
Audio #2
ID                             : 4
Format                         : AAC
Format/Info                    : Advanced Audio Codec
Format profile                 : LC
Codec ID                       : A_AAC
Duration                       : 2 h 1 min
Bit rate                       : 66.2 kb/s
Channel(s)                     : 2 channels
Channel positions              : Front: L R
Sampling rate                  : 44.1 kHz
Frame rate                     : 43.066 FPS (1024 spf)
Language                       : Hindi
Default                        : Yes
Forced                         : No
Text
ID                             : 3
Format                         : UTF-8
Codec ID                       : S_TEXT/UTF8
Codec ID/Info                  : UTF-8 Plain Text
Duration                       : 2 h 0 min
Bit rate                       : 60 b/s
Count of elements              : 1450
Stream size                    : 53.5 KiB (0%)
Language                       : English
Default                        : Yes
Forced                         : No
 http://i.imgur.com/uxb5Uyl.jpg
 http://i.imgur.com/msmyHbn.jpg
 http://i.imgur.com/VspfTdS.jpg

Post a Comment

0 Comments