Search

Ned Kelly 2003 720p BluRay Dual Audio English Hindi GOPISAHI

Video
Format/Info                    : Advanced Video Codec
Codec ID                       : V_MPEG4/ISO/AVC
Duration                       : 1 h 49 min
Bit rate                       : 890 kb/s
Width                          : 1 280 pixels
Height                         : 544 pixels
Display aspect ratio           : 2.35:1
Frame rate mode                : Constant
Frame rate                     : 23.976 (23976/1000) FPS
Original frame rate            : 23.976 (24000/1001) FPS
Stream size                    : 699 MiB (82%)
Writing library                : x264 core 146 r2538 121396c

Audio #1
Format                         : AC-3
Duration                       : 1 h 49 min
Bit rate mode                  : Constant
Bit rate                       : 96.0 kb/s
Channel(s)                     : 6 channels
Channel positions              : Front: L C R, Side: L R, LFE
Sampling rate                  : 44.1 kHz
Frame rate                     : 28.711 FPS (1536 SPF)
Stream size                    : 75.4 MiB (9%)
Language                       : English

Audio #2
Format                         : AC-3
Duration                       : 1 h 45 min
Bit rate mode                  : Constant
Bit rate                       : 96.0 kb/s
Channel(s)                     : 6 channels
Channel positions              : Front: L C R, Side: L R, LFE
Sampling rate                  : 44.1 kHz
Frame rate                     : 28.711 FPS (1536 SPF)
Stream size                    : 72.4 MiB (9%)
Language                       : Hindi
 
 
 

Post a Comment

0 Comments