Search

New Fists Of Fury 1976 720p Esub BluRay Dual Audio Hindi Chinese GOPISAHI

Format                         : Matroska
Format version                 : Version 4 / Version 2
File size                      : 586 MiB
Duration                       : 2 h 0 min
Overall bit rate               : 682 kb/s
Movie name                     : New Fists Of Fury 1976 GOPISAHI

Video
Format                         : AVC
Codec ID                       : V_MPEG4/ISO/AVC
Duration                       : 2 h 0 min
Bit rate                       : 500 kb/s
Width                          : 1 280 pixels
Height                         : 544 pixels
Display aspect ratio           : 2.35:1
Frame rate mode                : Constant
Frame rate                     : 23.976 (24000/1001) FPS
Stream size                    : 430 MiB (73%)
Writing library                : x264

Audio #1
Format                         : AAC
Duration                       : 2 h 0 min
Bit rate                       : 85.5 kb/s
Channel(s)                     : 6 channels
Channel positions              : Front: L C R, Side: L R, LFE
Sampling rate                  : 44.1 kHz
Frame rate                     : 43.066 FPS (1024 SPF)
Compression mode               : Lossy
Stream size                    : 73.4 MiB (13%)
Language                       : Hindi

Audio #2
Format                         : AAC
Duration                       : 2 h 0 min
Bit rate                       : 93.3 kb/s
Channel(s)                     : 6 channels
Channel positions              : Front: L C R, Side: L R, LFE
Sampling rate                  : 44.1 kHz
Frame rate                     : 43.066 FPS (1024 SPF)
Compression mode               : Lossy
Stream size                    : 80.2 MiB (14%)
Language                       : Chinese

Text
Language                       : English






Post a Comment

0 Comments